Download Best Of Roy Ayers Rar

The A-Side features the slow-slug disco funk of ‘N’Gwode’ and afro funk shaker ‘Keep New York Clean’, a track that wouldn’t sound out of place on Roy Ayers’ Coffy soundtrack. Meanwhile, the B-Side opens with the astonishingly emotive, polyrhythmic ‘Mother’s Day’ before closing with the deep vibrations on ‘Home Sweet Home’. Roy Ayers JID002 by Roy Ayers, Adrian Younge and Ali Shaheed Muhammad, released 19 June 2020 1. Synchronize Vibration 2. Soulful and Unique 4. Shadows of The East 5. African Sounds In February 2018, Roy Ayers performed four sold out shows in Los Angeles as part of the Jazz Is Dead Black History Month series. Fela kuti - africa, center of the world (1981).zip.

Songs

Roy Ayers Albums

TRACKLIST:

Converter

Roy Ayers Liquid Love

01. Electric Vibes (DJ Spinna Remix) [feat. Roy Ayers]
02. Angel Baby (Dax – I – Kue Vocal Remix) [feat. N’Dambi]
03. Angel Baby (Dax – I – Kue Dub Vox Remix) [feat. N’Dambi]
04. Wildfire Woman (Afro Elements Jazzin Bossa Remix) [feat. Jeremy Steig]
05. Black Choice (Beanfield Rework)
06. Watch Me Fly (Earth Sold Remix) [feat. Imaani]
07. Brooklyn Heights (The Kaidi Tatham Reinterpretation)
08. Electric Vibes (Harry Coade’s Dancefloor Mix) [feat. Roy Ayers]
09. Electric Vibes (DJ Spinna Dub) [feat. Roy Ayers]
10. The Flow (Agent K Vocal Mix) [feat. Flora Purim]
11. The Flow (Agent K Instrumental) [feat. Floria Purim]
12. The Flow (Mr Gone’s Samba De Sueco Remix) [feat. Flora Purim]
13. Right on Baby Yeah (Aim Mix)
14. Right on Baby Yeah (Hoops Havona Mix)
15. Funkin Around (Speedometer Rework)

Download Best Of Roy Ayers Rare

Стаж: 12 лет 4 месяца

Сообщений: 413


artem021 · 17-Апр-10 15:02(10 лет 9 месяцев назад, ред. 17-Апр-10 23:24)

Roy Ayers - Vibrant [1993] [Compilation]
Жанр: Jazz-Funk
Год выпуска диска: 2002
Производитель диска: Import
Аудио кодек: FLAC
Тип рипа: tracks+.cue
Битрейт аудио: lossless
Продолжительность: 1:13:24
Трэклист:
1. In the Dark
2. Poo Poo La La
3. Hot - Roy Ayers, Brice, Blinky
4. Programmed for Love - Roy Ayers, Frank, Doug
5. Night Flyte - Roy Ayers, Moore, Ed
6. Let Me Love You
7. I Really Wanna Be With You - Roy Ayers, Bedford, James
8. Marlon - Roy Ayers, Robbins, David [Bla
9. Can't You See Me (live)
10. Running Away (live)
11. Love Will Bring Us Back Together (live)
12. Everybody
13. Black Family
Exact Audio Copy V0.99 prebeta 4 from 23. January 2008
EAC extraction logfile from 7. November 2008, 12:36
Roy Ayers / Vibrant (The Very Best Of Roy ayers)
Used drive : HL-DT-STDVD-RW GSA-H60L Adapter: 1 ID: 2
Read mode : Secure
Utilize accurate stream : Yes
Defeat audio cache : Yes
Make use of C2 pointers : No
Read offset correction : 667
Overread into Lead-In and Lead-Out : No
Fill up missing offset samples with silence : Yes
Delete leading and trailing silent blocks : No
Null samples used in CRC calculations : Yes
Used interface : Native Win32 interface for Win NT & 2000
Gap handling : Appended to previous track
Used output format : User Defined Encoder
Selected bitrate : 128 kBit/s
Quality : High
Add ID3 tag : No
Command line compressor : C:Program FilesFLACflac.exe
Additional command line options : -V -8 -T 'artist=%a' -T 'title=%t' -T 'album=%g' -T 'date=%y' -T 'tracknumber=%n' -T 'genre=%m' %s
TOC of the extracted CD
Track Start Length Start sector End sector
---------------------------------------------------------
1 0:00.33 6:00.17 33 27049
2 6:00.50 6:36.40 27050 56789
3 12:37.15 4:45.35 56790 78199
4 17:22.50 5:44.08 78200 104007
5 23:06.58 4:37.12 104008 124794
6 27:43.70 5:50.50 124795 151094
7 33:34.45 5:16.43 151095 174837
8 38:51.13 3:31.35 174838 190697
9 42:22.48 4:34.50 190698 211297
10 46:57.23 6:28.35 211298 240432
11 53:25.58 6:23.57 240433 269214
12 59:49.40 4:12.18 269215 288132
13 64:01.58 9:22.25 288133 330307
Track 1
Filename C:EAC RipsRoy Ayers - 01 - In The Dark.wav
Pre-gap length 0:00:02.44
Peak level 100.0 %
Track quality 100.0 %
Test CRC 54292D1F
Copy CRC 54292D1F
Accurately ripped (confidence 1) [AEB5BE85]
Copy OK
Track 2
Filename C:EAC RipsRoy Ayers - 02 - Poo Poo La La.wav
Pre-gap length 0:00:02.56
Peak level 100.0 %
Track quality 100.0 %
Test CRC 75D50B45
Copy CRC 75D50B45
Accurately ripped (confidence 1) [0F190905]
Copy OK
Track 3
Filename C:EAC RipsRoy Ayers - 03 - Hot.wav
Pre-gap length 0:00:02.42
Peak level 99.5 %
Track quality 100.0 %
Test CRC C45402AD
Copy CRC C45402AD
Accurately ripped (confidence 1) [C9370982]
Copy OK
Track 4
Filename C:EAC RipsRoy Ayers - 04 - Programmed For Love.wav
Pre-gap length 0:00:02.00
Peak level 88.4 %
Track quality 100.0 %
Test CRC 2CF43CD9
Copy CRC 2CF43CD9
Accurately ripped (confidence 1) [1587D2E5]
Copy OK
Track 5
Filename C:EAC RipsRoy Ayers - 05 - Nite Flyte.wav
Pre-gap length 0:00:03.90
Peak level 100.0 %
Track quality 100.0 %
Test CRC 5E0045B1
Copy CRC 5E0045B1
Accurately ripped (confidence 1) [AED7E7EB]
Copy OK
Track 6
Filename C:EAC RipsRoy Ayers - 06 - Let Me Love You.wav
Pre-gap length 0:00:03.06
Peak level 97.3 %
Track quality 99.9 %
Test CRC 2D39F9C0
Copy CRC 2D39F9C0
Accurately ripped (confidence 1) [8679B35A]
Copy OK
Track 7
Filename C:EAC RipsRoy Ayers - 07 - I Really Wanna Be With You.wav
Pre-gap length 0:00:03.40
Peak level 91.7 %
Track quality 100.0 %
Test CRC F3FFED85
Copy CRC F3FFED85
Accurately ripped (confidence 1) [23C76C44]
Copy OK
Track 8
Filename C:EAC RipsRoy Ayers - 08 - Marlon.wav
Pre-gap length 0:00:01.84
Peak level 89.0 %
Track quality 100.0 %
Test CRC F4195AB9
Copy CRC F4195AB9
Accurately ripped (confidence 1) [7EB2759F]
Copy OK
Track 9
Filename C:EAC RipsRoy Ayers - 09 - Can't You See Me (Recorded Live At Ronnie Scott's Jazz Club).wav
Pre-gap length 0:00:01.20
Peak level 85.7 %
Track quality 100.0 %
Test CRC 2F3760B0
Copy CRC 2F3760B0
Accurately ripped (confidence 1) [05548FF0]
Copy OK
Track 10
Filename C:EAC RipsRoy Ayers - 10 - Running Away (Recorded Live At Ronnie Scott's Jazz Club).wav
Peak level 70.7 %
Track quality 100.0 %
Test CRC 232AA2D3
Copy CRC 232AA2D3
Accurately ripped (confidence 1) [CF4F92FF]
Copy OK
Track 11
Filename C:EAC RipsRoy Ayers - 11 - Love Will Bring Us Back Together (Recorded Live At Ronnie Scott's Jazz Club).wav
Peak level 88.4 %
Track quality 100.0 %
Test CRC 970D7BCA
Copy CRC 970D7BCA
Accurately ripped (confidence 1) [4A1E83A6]
Copy OK
Track 12
Filename C:EAC RipsRoy Ayers - 12 - Everybody.wav
Pre-gap length 0:00:01.09
Peak level 86.4 %
Track quality 100.0 %
Test CRC 8496F6C2
Copy CRC 8496F6C2
Accurately ripped (confidence 1) [B156E090]
Copy OK
Track 13
Filename C:EAC RipsRoy Ayers - 13 - Black Family.wav
Pre-gap length 0:00:03.66
Peak level 84.3 %
Track quality 100.0 %
Test CRC 34FF64F0
Copy CRC 34FF64F0
Accurately ripped (confidence 1) [F281F5D1]
Copy OK
All tracks accurately ripped
No errors occurred
End of status report
REM GENRE Jazz+Funk
REM DATE 1998
REM DISCID B811340D
REM COMMENT 'ExactAudioCopy v0.99pb4'
PERFORMER 'Roy Ayers'
TITLE 'Vibrant (The Very Best Of Roy ayers)'
FILE 'Roy Ayers - 01 - In The Dark.wav' WAVE
TRACK 01 AUDIO
TITLE 'In The Dark'
PERFORMER 'Roy Ayers'
PREGAP 00:00:33
INDEX 01 00:00:00
TRACK 02 AUDIO
TITLE 'Poo Poo La La '
PERFORMER 'Roy Ayers'
INDEX 00 05:57:50
FILE 'Roy Ayers - 02 - Poo Poo La La.wav' WAVE
INDEX 01 00:00:00
TRACK 03 AUDIO
TITLE 'Hot'
PERFORMER 'Roy Ayers'
INDEX 00 06:34:08
FILE 'Roy Ayers - 03 - Hot.wav' WAVE
INDEX 01 00:00:00
TRACK 04 AUDIO
TITLE 'Programmed For Love'
PERFORMER 'Roy Ayers'
INDEX 00 04:43:35
FILE 'Roy Ayers - 04 - Programmed For Love.wav' WAVE
INDEX 01 00:00:00
TRACK 05 AUDIO
TITLE 'Nite Flyte'
PERFORMER 'Roy Ayers'
INDEX 00 05:40:15
FILE 'Roy Ayers - 05 - Nite Flyte.wav' WAVE
INDEX 01 00:00:00
TRACK 06 AUDIO
TITLE 'Let Me Love You'
PERFORMER 'Roy Ayers'
INDEX 00 04:34:07
FILE 'Roy Ayers - 06 - Let Me Love You.wav' WAVE
INDEX 01 00:00:00
TRACK 07 AUDIO
TITLE 'I Really Wanna Be With You'
PERFORMER 'Roy Ayers'
INDEX 00 05:47:20
FILE 'Roy Ayers - 07 - I Really Wanna Be With You.wav' WAVE
INDEX 01 00:00:00
TRACK 08 AUDIO
TITLE 'Marlon'
PERFORMER 'Roy Ayers'
INDEX 00 05:14:55
FILE 'Roy Ayers - 08 - Marlon.wav' WAVE
INDEX 01 00:00:00
TRACK 09 AUDIO
TITLE 'Can't You See Me (Recorded Live At Ronnie Scott's Jazz Club)'
PERFORMER 'Roy Ayers'
INDEX 00 03:30:20
FILE 'Roy Ayers - 09 - Can't You See Me (Recorded Live At Ronnie Scott's Jazz Club).wav' WAVE
INDEX 01 00:00:00
FILE 'Roy Ayers - 10 - Running Away (Recorded Live At Ronnie Scott's Jazz Club).wav' WAVE
TRACK 10 AUDIO
TITLE 'Running Away (Recorded Live At Ronnie Scott's Jazz Club)'
PERFORMER 'Roy Ayers'
INDEX 01 00:00:00
FILE 'Roy Ayers - 11 - Love Will Bring Us Back Together (Recorded Live At Ronnie Scott's Jazz Club).wav' WAVE
TRACK 11 AUDIO
TITLE 'Love Will Bring Us Back Together (Recorded Live At Ronnie Scott's Jazz Club)'
PERFORMER 'Roy Ayers'
INDEX 01 00:00:00
TRACK 12 AUDIO
TITLE 'Everybody'
PERFORMER 'Roy Ayers'
INDEX 00 06:22:50
FILE 'Roy Ayers - 12 - Everybody.wav' WAVE
INDEX 01 00:00:00
TRACK 13 AUDIO
TITLE 'Black Family'
PERFORMER 'Roy Ayers'
INDEX 00 04:08:43
FILE 'Roy Ayers - 13 - Black Family.wav' WAVE
INDEX 01 00:00:00
Uploaded by starryskies What.cd
Download
  • 442.3 MB
Rutracker.org не распространяет и не хранит электронные версии произведений, а лишь предоставляет доступ к создаваемому пользователями каталогу ссылок на торрент-файлы, которые содержат только списки хеш-сумм
Как скачивать?(для скачивания .torrent файлов необходима регистрация)

GrBear

Стаж: 13 лет 7 месяцев

Сообщений: 8540

GrBear · 17-Апр-10 22:08(спустя 7 часов)

artem021
Формат названия темы:
(стиль) Имя исполнителя - Название альбома - Год, Кодек (тип рипа), lossless

Glaztonbury

Стаж: 11 лет 9 месяцев

Сообщений: 395

Glaztonbury · 10-Июн-10 07:47(спустя 1 месяц 22 дня)

Спасибо большое, Роя много не бывает, тем более в lossless.
Главная»Джазовая и Блюзовая музыка»Зарубежный джаз»Jazz Fusion (lossless)