Jim Jones On My Way To Church Rar

Rare

Jim Jones – 2004 – On My Way To Church. Posted on September 15, 2018 November 24, 2019. On My Way To Church (Outro) feat. Benjamin Chavis Muhammad. Here you can download file Jim Jones On My Way To Church. 2shared gives you an excellent opportunity to store your files here and share them with others. Join our community just now to flow with the file Jim Jones On My Way To Church and make our shared file collection even more complete and exciting. ON MY WAY TO CHURCH is an anticipated affair as evidenced by the album's The Diplomats are led by multi-platinum artist Cam-ron and also include protege's Juelz Santana Freeky Zeeky and Jim Jones. Over the past 3 years, they've been assaulting the streets and radio airwaves with their Harlem sound. On My Way To Church is Jim Jones' step out from home crew Diplomats as his solo debut album. This album begins with spoken spiritual words as the title track as done for the outro. 'Capo Status 1st Take', 'Capo Status 2nd Take' and 'Capo Status Final Take' are more like an introduction interlude for the flow skills of Jim Jones. Joseph Guillermo Jones II (born July 15, 1976), better known by his stage name Jim Jones (formerly Jimmy Jones), is an American rapper, record executive, and music video director.Jones, an original member of hip hop collective the Diplomats (also known as Dipset), is also the co-CEO of Diplomat Records, alongside longtime friend and fellow Harlem-bred rapper, Cam'ron.

Jim Jones On My Way To Church Raritan

Стаж: 12 лет 10 месяцев

Сообщений: 27

1987max · 05-Янв-09 13:13(11 лет 11 месяцев назад, ред. 05-Янв-09 13:22)

Jim Jones - On My Way To ChurchЖанр: Hip-Hop Год выпуска диска: 2004 Производитель диска: USAАльбом:
Аудио кодек: FLAC
Тип рипа: tracks+.cue
Битрейт аудио: lossless
Продолжительность: 1:12:09
Трэклист:
1. Jim Jones - On My Way To Church (Dr. Ben Intro) (1:40)
2. Jim Jones - Capo Status 1st Take (1:01)
3. Jim Jones - Only One Way Up feat. Cam'ron, Juelz Santana (4:06)
4. Jim Jones - This Is Jim Jones feat. Cam'ron (3:58)
5. Jim Jones - Let's Ride feat. J.R. Writer (4:05)
6. Jim Jones - Certified Gangstaz feat. Cam'ron. Bezel (4:03)
7. Jim Jones - Jamaican Joint feat. Cam'ron. Juelz Santana (4:10)
8. Jim Jones - End Of The Road feat. T.I. Bun B (4:17)
9. Jim Jones - Shotgun Fire (3:57)
10. Jim Jones - Capo Status 2nd Take (1:16)
11. Jim Jones - Lovely Daze/Memory Lane (5:43)
12. Jim Jones - Spanish Fly feat. Chico Debarge (3:29)
13. Jim Jones - Livin Life As A Rider feat. Denise Weeks (3:47)
14. Jim Jones - Twin Towers feat. Bizzie Bone (3:32)
15. Jim Jones - When Thugs Die (3:28)
16. Jim Jones - This Is Gangsta feat. Juelz Santana. Bezel (4:52)
17. Jim Jones - Crunk Muzik feat. Juelz Santana. Cam'ron (4:16)
18. Jim Jones - Bend N Stretch (3:42)
19. Jim Jones - Talking To The World (3:41)
20. Jim Jones - Capo Status Final Take (1:34)
21. Jim Jones - On My Way To Church (Outro) feat. Dr. Benjamin Chavis Muhammad (1:32)
Exact Audio Copy V0.99 prebeta 3 from 28. July 2007
EAC extraction logfile from 9. April 2008, 20:50
Jim Jones / On My Way To Church
Used drive : HL-DT-STCD-RW GCE-8483B Adapter: 1 ID: 0
Read mode : Secure
Utilize accurate stream : Yes
Defeat audio cache : Yes
Make use of C2 pointers : No
Read offset correction : 6
Overread into Lead-In and Lead-Out : No
Fill up missing offset samples with silence : Yes
Delete leading and trailing silent blocks : No
Null samples used in CRC calculations : Yes
Used interface : Native Win32 interface for Win NT & 2000
Gap handling : Appended to previous track
Used output format : User Defined Encoder
Selected bitrate : 192 kBit/s
Quality : High
Add ID3 tag : No
Command line compressor : C:Program FilesExact Audio CopyFlacflac.exe
Additional command line options : -8 -A tukey(0.25) -A gauss(0.1875) -b 4096 -V -T 'artist=%a' -T 'title=%t' -T 'album=%g' -T 'date=%y' -T 'tracknumber=%n' -T 'genre=%m' %s --sector-align
TOC of the extracted CD
Track Start Length Start sector End sector
---------------------------------------------------------
1 0:00.00 1:40.00 0 7499
2 1:40.00 1:01.61 7500 12135
3 2:41.61 4:06.02 12136 30587
4 6:47.63 3:57.62 30588 48424
5 10:45.50 4:05.02 48425 66801
6 14:50.52 4:03.18 66802 85044
7 18:53.70 4:09.54 85045 103773
8 23:03.49 4:16.67 103774 123040
9 27:20.41 3:57.13 123041 140828
10 31:17.54 1:16.14 140829 146542
11 32:33.68 5:43.25 146543 172292
12 38:17.18 3:29.35 172293 188002
13 41:46.53 3:47.07 188003 205034
14 45:33.60 3:31.68 205035 220927
15 49:05.53 3:28.23 220928 236550
16 52:34.01 4:52.10 236551 258460
17 57:26.11 4:15.40 258461 277625
18 61:41.51 3:42.16 277626 294291
19 65:23.67 3:40.74 294292 310865
20 69:04.66 1:33.71 310866 317911
21 70:38.62 1:31.50 317912 324786
Track 1
Filename C:Documents and SettingsDesktopEAC Downloads01 - Jim Jones - On My Way To Church (Dr. Ben Intro).wav
Pre-gap length 0:00:02.00
Peak level 100.0 %
Track quality 100.0 %
Test CRC 53E96E71
Copy CRC 53E96E71
Copy OK
Track 2
Filename C:Documents and SettingsDesktopEAC Downloads02 - Jim Jones - Capo Status 1st Take.wav
Peak level 100.0 %
Track quality 100.0 %
Test CRC 8B6AF180
Copy CRC 8B6AF180
Copy OK
Track 3
Filename C:Documents and SettingsDesktopEAC Downloads03 - Jim Jones - Only One Way Up feat. Cam'ron, Juelz Santana.wav
Pre-gap length 0:00:00.24
Peak level 100.0 %
Track quality 99.9 %
Test CRC 0268D291
Copy CRC 0268D291
Copy OK
Track 4
Filename C:Documents and SettingsDesktopEAC Downloads04 - Jim Jones - This Is Jim Jones feat. Cam'ron.wav
Peak level 100.0 %
Track quality 100.0 %
Test CRC A7C7ACA0
Copy CRC A7C7ACA0
Copy OK
Track 5
Filename C:Documents and SettingsDesktopEAC Downloads05 - Jim Jones - Let's Ride feat. J.R. Writer.wav
Peak level 100.0 %
Track quality 99.9 %
Test CRC 33875221
Copy CRC 33875221
Copy OK
Track 6
Filename C:Documents and SettingsDesktopEAC Downloads06 - Jim Jones - Certified Gangstaz feat. Cam'ron, Bezel.wav
Peak level 100.0 %
Track quality 100.0 %
Test CRC 0543D93E
Copy CRC 0543D93E
Copy OK
Track 7
Filename C:Documents and SettingsDesktopEAC Downloads07 - Jim Jones - Jamaican Joint feat. Cam'ron, Juelz Santana.wav
Peak level 100.0 %
Track quality 99.9 %
Test CRC 23742F35
Copy CRC 23742F35
Copy OK
Track 8
Filename C:Documents and SettingsDesktopEAC Downloads08 - Jim Jones - End Of The Road feat. T.I., Bun B.wav
Peak level 100.0 %
Track quality 100.0 %
Test CRC A23B9078
Copy CRC A23B9078
Copy OK
Track 9
Filename C:Documents and SettingsDesktopEAC Downloads09 - Jim Jones - Shotgun Fire.wav
Peak level 100.0 %
Track quality 100.0 %
Test CRC F97BA179
Copy CRC F97BA179
Copy OK
Track 10
Filename C:Documents and SettingsDesktopEAC Downloads10 - Jim Jones - Capo Status 2nd Take.wav
Peak level 100.0 %
Track quality 100.0 %
Test CRC CDB85959
Copy CRC CDB85959
Copy OK
Track 11
Filename C:Documents and SettingsDesktopEAC Downloads11 - Jim Jones - Lovely Daze,Memory Lane.wav
Peak level 100.0 %
Track quality 99.9 %
Test CRC 34749FCC
Copy CRC 34749FCC
Copy OK
Track 12
Filename C:Documents and SettingsDesktopEAC Downloads12 - Jim Jones - Spanish Fly feat. Chico Debarge.wav
Peak level 100.0 %
Track quality 100.0 %
Test CRC 74112F0D
Copy CRC 74112F0D
Copy OK
Track 13
Filename C:Documents and SettingsDesktopEAC Downloads13 - Jim Jones - Livin Life As A Rider feat. Denise Weeks.wav
Peak level 100.0 %
Track quality 100.0 %
Test CRC 8EDC8FF9
Copy CRC 8EDC8FF9
Copy OK
Track 14
Filename C:Documents and SettingsDesktopEAC Downloads14 - Jim Jones - Twin Towers feat. Bizzie Bone.wav
Peak level 100.0 %
Track quality 100.0 %
Test CRC 4EEF77D8
Copy CRC 4EEF77D8
Copy OK
Track 15
Filename C:Documents and SettingsDesktopEAC Downloads15 - Jim Jones - When Thugs Die.wav
Peak level 100.0 %
Track quality 100.0 %
Test CRC 08C2D567
Copy CRC 08C2D567
Copy OK
Track 16
Filename C:Documents and SettingsDesktopEAC Downloads16 - Jim Jones - This Is Gangsta feat. Juelz Santana, Bezel.wav
Peak level 100.0 %
Track quality 100.0 %
Test CRC 0DB312EB
Copy CRC 0DB312EB
Copy OK
Track 17
Filename C:Documents and SettingsDesktopEAC Downloads17 - Jim Jones - Crunk Muzik feat. Juelz Santana, Cam'ron.wav
Peak level 100.0 %
Track quality 100.0 %
Test CRC 254683B9
Copy CRC 254683B9
Copy OK
Track 18
Filename C:Documents and SettingsDesktopEAC Downloads18 - Jim Jones - Bend N Stretch.wav
Peak level 100.0 %
Track quality 100.0 %
Test CRC FE646249
Copy CRC FE646249
Copy OK
Track 19
Filename C:Documents and SettingsDesktopEAC Downloads19 - Jim Jones - Talking To The World.wav
Peak level 100.0 %
Track quality 100.0 %
Test CRC D16442DB
Copy CRC D16442DB
Copy OK
Track 20
Filename C:Documents and SettingsDesktopEAC Downloads20 - Jim Jones - Capo Status Final Take.wav
Peak level 100.0 %
Track quality 99.8 %
Test CRC F10C8F2D
Copy CRC F10C8F2D
Copy OK
Track 21
Filename C:Documents and SettingsDesktopEAC Downloads21 - Jim Jones - On My Way To Church (Outro) feat. Dr. Benjamin Chavis Muhammad.wav
Peak level 100.0 %
Track quality 99.8 %
Test CRC 046196D5
Copy CRC 046196D5
Copy OK
No errors occurred
End of status report
Started at: понедельник, 05. 01. 2009. - 18:12.59
21 files found
01 -- G:[FLAC]Jim Jones - On My Way To Church - 2004, FLAC (tracks+.cue)01 - Jim Jones - On My Way To Church (Dr. Ben Intro).flac
Extracted successfully
Conclusion: this track is CDDA with probability 100%
Tempfile successfully deleted.
02 -- G:[FLAC]Jim Jones - On My Way To Church - 2004, FLAC (tracks+.cue)02 - Jim Jones - Capo Status 1st Take.flac
Extracted successfully
Conclusion: this track is CDDA with probability 100%
Tempfile successfully deleted.
03 -- G:[FLAC]Jim Jones - On My Way To Church - 2004, FLAC (tracks+.cue)03 - Jim Jones - Only One Way Up feat. Cam'ron, Juelz Santana.flac
Extracted successfully
Conclusion: this track is CDDA with probability 100%
Tempfile successfully deleted.
04 -- G:[FLAC]Jim Jones - On My Way To Church - 2004, FLAC (tracks+.cue)04 - Jim Jones - This Is Jim Jones feat. Cam'ron.flac
Extracted successfully
Conclusion: this track is CDDA with probability 99%
Tempfile successfully deleted.
05 -- G:[FLAC]Jim Jones - On My Way To Church - 2004, FLAC (tracks+.cue)05 - Jim Jones - Let's Ride feat. J.R. Writer.flac
Extracted successfully
Conclusion: this track is CDDA with probability 100%
Tempfile successfully deleted.
06 -- G:[FLAC]Jim Jones - On My Way To Church - 2004, FLAC (tracks+.cue)06 - Jim Jones - Certified Gangstaz feat. Cam'ron, Bezel.flac
Extracted successfully
Conclusion: this track is CDDA with probability 100%
Tempfile successfully deleted.
07 -- G:[FLAC]Jim Jones - On My Way To Church - 2004, FLAC (tracks+.cue)07 - Jim Jones - Jamaican Joint feat. Cam'ron, Juelz Santana.flac
Extracted successfully
Conclusion: this track is CDDA with probability 100%
Tempfile successfully deleted.
08 -- G:[FLAC]Jim Jones - On My Way To Church - 2004, FLAC (tracks+.cue)08 - Jim Jones - End Of The Road feat. T.I., Bun B.flac
Extracted successfully
Conclusion: this track is CDDA with probability 100%
Tempfile successfully deleted.
09 -- G:[FLAC]Jim Jones - On My Way To Church - 2004, FLAC (tracks+.cue)09 - Jim Jones - Shotgun Fire.flac
Extracted successfully
Conclusion: this track is CDDA with probability 100%
Tempfile successfully deleted.
10 -- G:[FLAC]Jim Jones - On My Way To Church - 2004, FLAC (tracks+.cue)10 - Jim Jones - Capo Status 2nd Take.flac
Extracted successfully
Conclusion: this track is CDDA with probability 100%
Tempfile successfully deleted.
11 -- G:[FLAC]Jim Jones - On My Way To Church - 2004, FLAC (tracks+.cue)11 - Jim Jones - Lovely Daze,Memory Lane.flac
Extracted successfully
Conclusion: this track is CDDA with probability 100%
Tempfile successfully deleted.
12 -- G:[FLAC]Jim Jones - On My Way To Church - 2004, FLAC (tracks+.cue)12 - Jim Jones - Spanish Fly feat. Chico Debarge.flac
Extracted successfully
Conclusion: this track is CDDA with probability 100%
Tempfile successfully deleted.
13 -- G:[FLAC]Jim Jones - On My Way To Church - 2004, FLAC (tracks+.cue)13 - Jim Jones - Livin Life As A Rider feat. Denise Weeks.flac
Extracted successfully
Conclusion: this track is CDDA with probability 100%
Tempfile successfully deleted.
14 -- G:[FLAC]Jim Jones - On My Way To Church - 2004, FLAC (tracks+.cue)14 - Jim Jones - Twin Towers feat. Bizzie Bone.flac
Extracted successfully
Conclusion: this track is CDDA with probability 100%
Tempfile successfully deleted.
15 -- G:[FLAC]Jim Jones - On My Way To Church - 2004, FLAC (tracks+.cue)15 - Jim Jones - When Thugs Die.flac
Extracted successfully
Conclusion: this track is CDDA with probability 100%
Tempfile successfully deleted.
16 -- G:[FLAC]Jim Jones - On My Way To Church - 2004, FLAC (tracks+.cue)16 - Jim Jones - This Is Gangsta feat. Juelz Santana, Bezel.flac
Extracted successfully
Conclusion: this track is CDDA with probability 100%
Tempfile successfully deleted.
17 -- G:[FLAC]Jim Jones - On My Way To Church - 2004, FLAC (tracks+.cue)17 - Jim Jones - Crunk Muzik feat. Juelz Santana, Cam'ron.flac
Extracted successfully
Conclusion: this track is CDDA with probability 100%
Tempfile successfully deleted.
18 -- G:[FLAC]Jim Jones - On My Way To Church - 2004, FLAC (tracks+.cue)18 - Jim Jones - Bend N Stretch.flac
Extracted successfully
Conclusion: this track is CDDA with probability 99%
Tempfile successfully deleted.
19 -- G:[FLAC]Jim Jones - On My Way To Church - 2004, FLAC (tracks+.cue)19 - Jim Jones - Talking To The World.flac
Extracted successfully
Conclusion: this track is CDDA with probability 100%
Tempfile successfully deleted.
20 -- G:[FLAC]Jim Jones - On My Way To Church - 2004, FLAC (tracks+.cue)20 - Jim Jones - Capo Status Final Take.flac
Extracted successfully
Conclusion: this track is CDDA with probability 99%
Tempfile successfully deleted.
21 -- G:[FLAC]Jim Jones - On My Way To Church - 2004, FLAC (tracks+.cue)21 - Jim Jones - On My Way To Church (Outro) feat. Dr. Benjamin Chavis Muhammad.flac
Extracted successfully
Conclusion: this track is CDDA with probability 100%
Tempfile successfully deleted.
Finished at: понедельник, 05. 01. 2009. - 18:21.30 (operation time: 0:08.31)

Best printers for mac os. Гость


Гость · 05-Янв-09 17:07(спустя 3 часа)

bot · 20-Мар-19 09:48(спустя 10 лет 2 месяца)

Тема была перенесена из форума Зарубежный Рэп, Хип-Хоп (lossless) в форум Архив (Рэп, Хип-Хоп, R'n'B)
jaundiced
Главная»Музыка»Рэп, Хип-Хоп, R'n'B»Архив (Рэп, Хип-Хоп, R'n'B)