Naughty Boy Hotel Cabana Album Zip

I am building a form and need the Microsoft MonthView Control 6 (SP4) option to insert a calendar for choosing a date. VBA Project-Toolbox-Addtional Controls-Missing the Microsoft MonthView Control 6 option. I am working with Excel 2016. I appreciate any help anyone in. In Excel 2010 it was quite easy for me to populate a date cell using the MonthView Contol I think from Microsoft Windows Common Controls 6.0. Windows10 64bit. I am looking for the Calendar Control that should be an Additional Control in the ToolBox. Find out step by step instructions on how to fix Monthview Control Missing In Office 2016. Get 24x7 Support for Microsoft related products. Microsoft monthview control 6 0 excel 2016 missing. I need to use the MonthView control on a machine that. And I have used the Microsoft MonthView Control 6.0 (SP6). But I do suggest before you download. My company is starting to push out Windows 10 and Office 2016 64 bit to out machines and running into this issue. Nov 28, 2016 Hi Guys, I need to use Microsoft MonthView Control in a worksheet from Excel 2010 32bit. I'm using Windows 10 so I thought the controls is not registered to Windows 10. I've tried registering the. Change Microsoft Monthview position on excel sheet. I want this control to be appeared when user click at any cell in column 4.

Naughty Boy - Hotel Cabana (Deluxe Version)Hotel

Hotel Cabana (2013) is the debut studio album by British record producer Naughty Boy. Hotel Cabana is a Studio Album by Naughty Boy released in 2013. Listen now for free!

Жанр: Pop, Electronic, Pop Rock
Страна: UK
Год издания: 2013
Издатель (лейбл): ℗ Naughty Boy Recordings Ltd
Аудио кодек: AAC
Тип рипа: tracks
Битрейт аудио: 256 kbps
Продолжительность: - 01:04:21 - 00:07:31
Источник: iTunes
Вшитые тексты: не добавлены
Наличие сканов в содержимом раздачи: нет
Треклист:
01.Act I (feat. George the poet)(0:25)
02.Welcome To Cabana (feat. Emeli Sandé & Tinie Tempah)(1:51)
03.Wonder (feat. Emeli Sandé)(3:28)
04.Think About It (feat. Wiz Khalifa & Ella Eyre)(3:06)
05.Hollywood (feat. Gabrielle)(4:05)
06.Act II (feat. George the poet)(0:21)
07.La La La (feat. Sam Smith)(3:42)
08.One Way (feat. Mic Righteous & Maiday)(3:27)
09.Pluto (feat. Emeli Sandé & Wretch 32)(3:58)
10.So Strong (feat. Chasing Grace)(3:36)
11.No One's Here To Sleep (feat. Bastille)(4:33)

Naughty Boy Ft. George The Poet - Act I (Hotel Cabana) - YouTube

12.Lifted (feat. Emeli Sandé)(3:17)
13.Top Floor (feat. Ed Sheeran) [Cabana](2:09)
Hotel14.Epilogue (feat. George the poet)(1:28)
15.Never Be Your Woman (feat. Wiley & Emeli Sandé) [Bonus Track](3:31)
16.Daddy (feat. Naughty Boy) [Ifan Dafydd Remix] {Bonus Track}(5:00)
17.Get Lucky (feat. Tanika) [Bonus Track](4:18)
18.Lifted (feat. Emeli Sandé & Professor Green) [Bonus Track](4:16)

Cached


19.Wonder (feat. Emeli Sandé) [Kidnap Kid Remix] {Bonus Track}(3:55)
20.La La La (feat. Sam Smith) [Kaos Remix] {Bonus Track}

Virgin

(3:55)
21.Wonder (feat. Emeli Sandé)(3:27)
22.La La La (feat. Sam Smith)(4:04)Видео - WEB-DL, MPEG-4 Video (H264), English, 1520 Kbps, 640*268 (2.40:1), 25.000 fps, AVC
Аудио - English, 256 Kbps, 44.1 KHz, 2 channels, AAC (LC)
Complete name : Wonder (feat. Emeli Sandé).m4v
Format : MPEG-4
Codec ID : M4V
File size : 44.9 MiB
Duration : 3mn 27s
Overall bit rate : 1 816 Kbps
Movie name : Wonder (feat. Emeli Sandé)
Album : Hotel Cabana (Deluxe Version)
Album/Performer : Naughty Boy
Track name/Position : 21
Performer : Naughty Boy
Genre : Pop
Recorded date : UTC 2013-08-23 07:00:00
Encoded date : UTC 2013-07-09 09:08:50
Tagged date : UTC 2013-07-09 09:08:51
Copyright : ℗ 2012 Virgin Records Ltd
Cover : Yes
apID : lim[email protected]
cnID : 671601175
rtng : 0
atID : 318795990
plID : 671601106
geID : 1614
sfID : 143446
akID : 0
stik : 6
purd : 2013-08-22 21:05:22
xid : Universal:vendor_id:00602537490707_00602537490707_GB1201200059_01_021
flvr : 6:640x480LC-256
iTunMOVI : <?xml version='1.0' encoding='UTF-8'?> / <!DOCTYPE plist PUBLIC '-//Apple//DTD PLIST 1.0//EN' 'http://www.apple.com/DTDs/PropertyList-1.0.dtd'> / <plist version='1.0'> / <dict> / <key>asset-info</key> / <dict> / <key>file-size</key> / <integer>47076201</integer> / <key>flavor</key> / <string>6:640x480LC-256</string> / <key>screen-format</key> / <string>widescreen</string> / </dict> / </dict> / </plist>
Video #1
ID : 1
Format : AVC
Format/Info : Advanced Video Codec
Format profile : [email protected]
Format settings, CABAC : No
Format settings, ReFrames : 1 frame
Codec ID : avc1
Codec ID/Info : Advanced Video Coding
Duration : 3mn 27s
Bit rate : 1 520 Kbps
Width : 640 pixels
Height : 268 pixels
Display aspect ratio : 2.40:1
Frame rate mode : Constant
Frame rate : 25.000 fps
Color space : YUV
Chroma subsampling : 4:2:0
Bit depth : 8 bits
Scan type : Progressive
Bits/(Pixel*Frame) : 0.354
Stream size : 37.6 MiB (84%)
Language : English
Encoded date : UTC 2013-07-09 09:08:50
Tagged date : UTC 2013-07-09 09:08:51
Color primaries : BT.601 NTSC
Transfer characteristics : BT.709
Matrix coefficients : BT.601
Audio #2
ID : 2
Format : AAC
Format/Info : Advanced Audio Codec
Format profile : LC
Codec ID : 40
Duration : 3mn 27s
Source duration : 3mn 27s
Bit rate mode : Constant
Bit rate : 256 Kbps
Channel(s) : 2 channels
Channel positions : Front: L R
Sampling rate : 44.1 KHz
Compression mode : Lossy
Stream size : 6.16 MiB (14%)
Source stream size : 6.16 MiB (14%)
Language : English
Encoded date : UTC 2013-07-09 09:08:50
Tagged date : UTC 2013-07-09 09:08:51
Видео - WEB-DL, MPEG-4 Video (H264), English, 1543 Kbps, 640*358 (16:9), 25.000 fps, AVC

Naughty Boy Hotel Cabana Album Zip Album


Аудио - English, 256 Kbps, 44.1 KHz, 2 channels, AAC (LC)

Naughty Boy Hotel Cabana Album Zip Code

Complete name : La La La (feat. Sam Smith).m4v
Format : MPEG-4
Codec ID : M4V
File size : 53.4 MiB
Duration : 4mn 4s
Overall bit rate : 1 832 Kbps
Movie name : La La La (feat. Sam Smith)
Album : Hotel Cabana (Deluxe Version)
Album/Performer : Naughty Boy
Track name/Position : 22
Performer : Naughty Boy
Genre : Pop
Recorded date : UTC 2013-08-23 07:00:00
Encoded date : UTC 2013-07-09 09:10:15
Tagged date : UTC 2013-07-09 09:10:16
Copyright : ℗ 2013 Naughty Boy Recordings Ltd, under exclusive licence to Virgin Records Ltd
Cover : Yes
apID : [email protected]
cnID : 671601182
rtng : 0
atID : 164015724
plID : 671601106
geID : 1614
sfID : 143446
akID : 0
stik : 6
purd : 2013-08-22 21:05:22
xid : Universal:vendor_id:00602537490707_00602537490707_GBUV71300528_01_022
flvr : 6:640x480LC-256
iTunMOVI : <?xml version='1.0' encoding='UTF-8'?> / <!DOCTYPE plist PUBLIC '-//Apple//DTD PLIST 1.0//EN' 'http://www.apple.com/DTDs/PropertyList-1.0.dtd'> / <plist version='1.0'> / <dict> / <key>asset-info</key> / <dict> / <key>file-size</key> / <integer>55949955</integer> / <key>flavor</key> / <string>6:640x480LC-256</string> / <key>screen-format</key> / <string>widescreen</string> / </dict> / </dict> / </plist>
Video #1
ID : 1
Format : AVC
Format/Info : Advanced Video Codec
Format profile : [email protected]
Format settings, CABAC : No
Format settings, ReFrames : 1 frame
Format settings, GOP : M=1, N=120
Codec ID : avc1
Codec ID/Info : Advanced Video Coding
Duration : 4mn 4s
Bit rate : 1 543 Kbps
Width : 640 pixels
Height : 358 pixels
Display aspect ratio : 16:9
Frame rate mode : Constant
Frame rate : 25.000 fps
Color space : YUV
Chroma subsampling : 4:2:0
Bit depth : 8 bits
Scan type : Progressive
Bits/(Pixel*Frame) : 0.269
Stream size : 45.0 MiB (84%)
Language : English
Encoded date : UTC 2013-07-09 09:10:15
Tagged date : UTC 2013-07-09 09:10:16
Color primaries : BT.601 NTSC
Transfer characteristics : BT.709
Matrix coefficients : BT.601
Audio #2
ID : 2
Format : AAC
Format/Info : Advanced Audio Codec
Format profile : LC
Codec ID : 40
Duration : 4mn 4s
Source duration : 4mn 4s
Bit rate mode : Constant
Bit rate : 256 Kbps
Channel(s) : 2 channels
Channel positions : Front: L R
Sampling rate : 44.1 KHz
Compression mode : Lossy
Stream size : 7.24 MiB (14%)
Source stream size : 7.24 MiB (14%)
Language : English
Encoded date : UTC 2013-07-09 09:10:15
Tagged date : UTC 2013-07-09 09:10:16